<?xml version="1.0" standalone="no"?>
<!DOCTYPE svg PUBLIC "-//W3C//DTD SVG 1.1//EN" "http://www.w3.org/Graphics/SVG/1.1/DTD/svg11.dtd" >
<svg xmlns="http://www.w3.org/2000/svg">
<metadata>Generated by IcoMoon</metadata>
<defs>
<font id="albus" horiz-adv-x="1024">
<font-face units-per-em="1024" ascent="960" descent="-64" />
<missing-glyph horiz-adv-x="1024" />
<glyph unicode="&#x20;" horiz-adv-x="512" d="" />
<glyph unicode="&#xe900;" glyph-name="bullet-4" horiz-adv-x="819" d="M819.2 345.6c0-52.429-37.683-92.57-90.112-95.846l-83.558-6.554c-71.27-4.915-128.614-61.44-132.71-132.71l-6.554-83.558c-2.458-52.429-43.418-90.112-95.846-90.112s-93.389 37.683-95.846 90.112l-6.554 83.558c-4.915 71.27-61.44 128.614-132.71 132.71l-85.197 6.554c-52.429 3.277-90.112 43.418-90.112 95.846s37.683 93.389 89.293 95.846l85.197 6.554c71.27 4.915 128.614 61.44 132.71 132.71l6.554 85.197c2.458 51.61 43.418 89.293 95.846 89.293s93.389-37.683 95.846-89.293l6.554-85.197c4.915-71.27 61.44-128.614 132.71-132.71l83.558-6.554c52.429-2.458 90.112-43.418 90.112-95.846h0.819z" />
<glyph unicode="&#xe901;" glyph-name="bullet-3" horiz-adv-x="819" d="M806.106 396.388l-159.744-164.659 32.768-227.738c2.458-16.384-4.096-31.949-18.022-41.779-13.107-9.83-31.13-11.469-45.056-4.096l-206.438 102.4-206.438-102.4c-6.554-2.458-13.107-4.096-19.661-4.096-9.83 0-18.842 2.458-27.034 9.011-13.107 9.83-19.661 25.395-18.022 41.779l32.768 227.738-158.925 163.84c-11.469 12.288-14.746 29.491-10.65 45.056 5.734 14.746 18.842 27.034 34.406 30.31l226.918 38.502 106.496 203.162c16.384 29.491 63.898 29.491 79.462 0l106.496-203.162 226.918-38.502c16.384-3.277 29.491-14.746 34.406-30.31 5.734-16.384 0.819-32.768-10.65-45.056z" />
<glyph unicode="&#xe902;" glyph-name="bullet-2" horiz-adv-x="819" d="M782.321 331.671c-14.746-23.757-96.666-145.818-234.291-244.941l-112.23-82.739c-7.373-5.734-17.203-8.192-26.214-8.192s-18.842 2.458-26.214 8.192l-112.23 82.739c-141.723 103.219-225.281 231.014-234.292 244.941-34.406 54.067-45.056 117.146-31.949 178.586 13.926 61.44 50.79 113.869 104.038 147.456s117.146 44.237 177.768 31.13c48.333-10.65 90.112-35.226 122.88-70.451 75.366 83.558 201.523 102.399 300.646 40.141 109.773-69.632 141.722-215.45 72.090-326.042v-0.819z" />
<glyph unicode="&#xe903;" glyph-name="bullet-1" horiz-adv-x="819" d="M819.22 345.6c0-33.587-25.395-61.44-59.802-63.898l-209.715-14.746c-33.587-1.638-60.623-28.672-62.259-62.259l-14.746-209.715c-2.458-33.587-29.494-59.802-63.898-59.802-34.406 0-61.44 26.214-63.898 59.802l-14.746 209.715c-1.638 33.587-28.675 60.621-61.443 62.259l-209.714 14.746c-34.406 2.458-59.802 30.31-59.802 63.898s25.395 61.44 59.802 63.898l209.714 14.746c32.768 1.638 59.804 28.672 61.443 62.259l14.746 209.715c2.458 33.587 29.491 59.801 63.898 59.801 34.404 0 61.44-26.214 63.898-59.801l14.746-209.715c1.636-33.587 28.672-60.621 62.259-62.259l209.715-14.746c33.587-2.458 59.802-29.491 59.802-63.898z" />
<glyph unicode="&#xe904;" glyph-name="plus" d="M512.013 862.381c-226.593 0-410.282-183.69-410.282-410.283s183.689-410.282 410.282-410.282c226.593 0 410.284 183.689 410.284 410.282s-183.691 410.283-410.284 410.283zM33.464 452.098c0 264.296 214.254 478.55 478.548 478.55 264.296 0 478.55-214.253 478.55-478.55s-214.254-478.55-478.55-478.55c-264.294 0-478.548 214.254-478.548 478.55zM512 721.406c18.851 0 34.132-15.281 34.132-34.134v-470.016c0-18.851-15.281-34.132-34.132-34.132-18.853 0-34.134 15.281-34.134 34.132v470.016c0 18.853 15.281 34.134 34.134 34.134zM242.697 452.094c0 18.851 15.281 34.134 34.132 34.134h470.358c18.851 0 34.134-15.283 34.134-34.134s-15.283-34.134-34.134-34.134h-470.358c-18.851 0-34.132 15.283-34.132 34.134z" />
<glyph unicode="&#xe905;" glyph-name="rounded-arrow" d="M445.881 640.753c13.33 13.328 34.942 13.328 48.272 0l161.11-161.11c6.405-6.405 10-15.095 9.997-24.154-0.005-9.059-3.61-17.744-10.022-24.143l-165.546-165.206c-13.345-13.316-34.957-13.294-48.272 0.049-13.316 13.345-13.294 34.957 0.049 48.272l141.361 141.069-136.949 136.949c-13.33 13.33-13.33 34.942 0 48.272zM505.521 862.72c-134.996 0-254.351-66.035-328.469-167.278-11.136-15.21-32.494-18.514-47.705-7.378s-18.514 32.494-7.379 47.704c86.309 117.894 225.684 195.219 383.552 195.219 262.905 0 475.818-212.914 475.818-475.819s-212.913-475.818-475.818-475.818c-157.813 0-297.211 76.937-383.552 194.876-11.136 15.21-7.832 36.57 7.379 47.704 15.211 11.136 36.569 7.834 47.705-7.378 74.084-101.195 193.418-166.936 328.469-166.936 225.201 0 407.552 182.351 407.552 407.552s-182.351 407.552-407.552 407.552zM42.678 456.876c0 18.851 15.282 34.134 34.133 34.134h554.325c18.853 0 34.134-15.283 34.134-34.134s-15.281-34.134-34.134-34.134h-554.325c-18.851 0-34.133 15.283-34.133 34.134z" />
<glyph unicode="&#xe906;" glyph-name="rotate" d="M920.42 896.497c4.225-18.049-7.242-36.047-25.614-40.198l-239.808-54.188 53.456-228.557c4.222-18.051-7.251-36.045-25.623-40.193-18.371-4.148-36.688 7.123-40.91 25.172l-61.099 261.234c-4.222 18.048 7.247 36.040 25.616 40.191l273.067 61.704c18.371 4.151 36.69-7.115 40.915-25.165zM341.211 362.642c18.373 4.146 36.688-7.123 40.91-25.174l61.099-261.233c4.222-18.048-7.247-36.039-25.616-40.191l-273.066-61.704c-18.372-4.15-36.69 7.116-40.916 25.165s7.242 36.047 25.614 40.198l239.809 54.188-53.456 228.559c-4.222 18.049 7.251 36.045 25.623 40.193zM581.079 835.801c4.793 17.912 23.459 28.614 41.691 23.904 185.978-48.045 323.095-214.343 323.095-412.043 0-197.698-137.117-363.998-323.095-412.043-18.233-4.709-36.898 5.993-41.691 23.906-4.795 17.911 6.099 36.25 24.33 40.958 156.721 40.488 272.19 180.695 272.19 347.179 0 166.486-115.469 306.693-272.19 347.179-18.231 4.71-29.125 23.048-24.33 40.96zM442.972 836.139c4.793-17.912-6.099-36.25-24.332-40.96-156.719-40.485-272.189-180.693-272.189-347.179 0-166.484 115.47-306.692 272.189-347.179 18.233-4.709 29.125-23.047 24.332-40.96-4.795-17.911-23.46-28.613-41.691-23.904-185.98 48.045-323.096 214.345-323.096 412.043 0 197.7 137.116 363.998 323.096 412.043 18.231 4.71 36.896-5.992 41.691-23.904z" />
<glyph unicode="&#xe907;" glyph-name="file" d="M170.074 539.721c13.33 13.33 34.942 13.33 48.272 0l143.36-143.36c6.4-6.402 9.997-15.082 9.997-24.135s-3.597-17.735-9.997-24.137l-147.116-147.114c-13.33-13.33-34.941-13.33-48.271 0s-13.33 34.942 0 48.272l122.979 122.979-119.225 119.223c-13.33 13.33-13.33 34.942 0 48.272zM19.089 372.224c0 18.851 15.282 34.134 34.133 34.134h284.33c18.853 0 34.134-15.283 34.134-34.134s-15.281-34.134-34.134-34.134h-284.33c-18.851 0-34.133 15.283-34.133 34.134zM418.125 818.005c0 18.851 15.281 34.133 34.134 34.133h500.394c18.851 0 34.134-15.282 34.134-34.133v-695.297c0-18.851-15.283-34.132-34.134-34.132h-500.394c-18.853 0-34.134 15.281-34.134 34.132v695.297zM486.391 783.872v-627.030h432.128v627.030h-432.128zM504.821 711.854c0 18.851 15.283 34.132 34.134 34.132h327.338c18.853 0 34.134-15.281 34.134-34.132 0-18.853-15.281-34.134-34.134-34.134h-327.338c-18.851 0-34.134 15.281-34.134 34.134zM504.821 593.068c0 18.851 15.283 34.132 34.134 34.132h327.338c18.853 0 34.134-15.281 34.134-34.132s-15.281-34.134-34.134-34.134h-327.338c-18.851 0-34.134 15.283-34.134 34.134zM504.821 474.282c0 18.851 15.283 34.134 34.134 34.134h224.598c18.851 0 34.132-15.283 34.132-34.134s-15.281-34.134-34.132-34.134h-224.598c-18.851 0-34.134 15.283-34.134 34.134zM504.821 250.366c0 18.853 15.283 34.134 34.134 34.134h224.598c18.851 0 34.132-15.281 34.132-34.134 0-18.851-15.281-34.132-34.132-34.132h-224.598c-18.851 0-34.134 15.281-34.134 34.132z" />
<glyph unicode="&#xe908;" glyph-name="pharmacy" d="M327.941 877.055c0 37.625 30.095 68.267 67.046 68.267h234.331c36.954 0 67.048-30.642 67.048-68.267v-241.323h237.014c0.272 0 0.545-0.004 0.817-0.009 36.423-0.631 65.894-31.025 65.894-68.257v-238.592c0-37.625-30.095-68.268-67.048-68.268h-237.012v-241.322c0-37.625-30.095-68.266-67.048-68.266h-234.331c-36.954 0-67.048 30.641-67.048 68.266v241.322h-237.013c-36.953 0-67.048 30.643-67.048 68.268v238.592c0 37.625 30.095 68.266 67.048 68.266h237.349v241.323zM933.045 567.466h-270.201c-18.516 0-33.525 15.281-33.525 34.132v275.457h-234.331v-275.457c0-18.851-15.009-34.132-33.523-34.132h-270.873v-238.592h270.538c18.514 0 33.523-15.283 33.523-34.134v-275.456h234.331v275.456c0 18.851 15.009 34.134 33.523 34.134h270.537v238.592z" />
<glyph unicode="&#xe909;" glyph-name="phone" d="M347.478 871.939c-41.66 0-75.434-33.773-75.434-75.435v-697.686c0-41.66 33.774-75.434 75.434-75.434h377.856c41.662 0 75.434 33.774 75.434 75.434v697.686c0 41.661-33.772 75.435-75.434 75.435h-377.856zM203.776 796.504c0 79.364 64.338 143.701 143.702 143.701h377.856c79.364 0 143.702-64.337 143.702-143.701v-697.686c0-79.364-64.338-143.7-143.702-143.7h-377.856c-79.364 0-143.702 64.336-143.702 143.7v697.686zM536.245 201.898c-25.073 0-45.398-20.325-45.398-45.396 0-25.073 20.325-45.398 45.398-45.398s45.396 20.325 45.396 45.398c0 25.072-20.325 45.396-45.396 45.396zM422.581 156.502c0 62.775 50.889 113.664 113.664 113.664s113.664-50.889 113.664-113.664c0-62.775-50.889-113.664-113.664-113.664s-113.664 50.889-113.664 113.664z" />
<glyph unicode="&#xe90a;" glyph-name="credit-card-check" d="M45.423 652.223c18.851 0 34.133-15.013 34.133-33.533v-302.146c0-36.215 29.849-65.728 66.901-65.728h413.013c18.852 0 34.133-15.013 34.133-33.533 0-18.522-15.281-33.535-34.133-33.535h-413.013c-74.905 0-135.168 59.688-135.168 132.797v302.146c0 18.52 15.282 33.533 34.133 33.533zM914.116 652.223c18.851 0 34.133-15.013 34.133-33.533v-135.145c0-18.52-15.283-33.535-34.133-33.535s-34.133 15.015-34.133 33.535v135.145c0 18.52 15.283 33.533 34.133 33.533zM11.289 697.834c0 73.108 60.263 132.797 135.168 132.797h666.624c74.414 0 135.168-59.206 135.168-132.797v-79.141c0-18.52-15.281-33.535-34.133-33.535-18.851 0-34.133 15.015-34.133 33.535v79.141c0 36.402-30.039 65.728-66.901 65.728h-666.624c-37.052 0-66.901-29.513-66.901-65.728v-79.141c0-18.52-15.282-33.535-34.133-33.535s-34.133 15.015-34.133 33.535v79.141zM10.956 618.69c0 18.52 15.282 33.533 34.133 33.533h869.035c18.851 0 34.133-15.013 34.133-33.533 0-18.522-15.283-33.535-34.133-33.535h-869.035c-18.851 0-34.133 15.013-34.133 33.535zM889.452 417.722c13.33-13.096 13.33-34.329 0-47.426l-133.461-131.119c-13.33-13.096-34.942-13.096-48.272 0l-76.8 75.453c-13.33 13.095-13.33 34.327 0 47.424s34.942 13.096 48.272 0l52.664-51.739 109.325 107.407c13.33 13.096 34.942 13.096 48.272 0zM494.29 328.282c0 140.954 116.35 254.863 259.413 254.863 72.427 0 137.669-29.43 184.661-75.983 13.274-13.15 13.184-34.383-0.199-47.426-13.386-13.041-34.997-12.953-48.272 0.198-34.927 34.599-83.007 56.142-136.19 56.142-105.429 0-191.147-83.946-191.147-187.794 0-34.367 9.516-66.476 26.092-94.474 9.476-16.009 3.95-36.535-12.345-45.848-16.294-9.311-37.189-3.882-46.666 12.128-22.338 37.73-35.348 81.408-35.348 128.194zM890.17 507.462c13.441 12.983 35.053 12.804 48.27-0.402 45.888-45.855 74.646-108.84 74.646-178.776 0-140.552-115.942-254.861-259.413-254.861-95.634 0-178.974 51.078-223.724 126.667-9.478 16.009-3.95 36.535 12.345 45.848 16.294 9.311 37.187 3.882 46.666-12.128 33.075-55.867 94.46-93.319 164.713-93.319 105.702 0 191.147 84.214 191.147 187.793 0 51.459-21.076 97.797-55.059 131.755-13.217 13.206-13.034 34.439 0.41 47.424z" />
<glyph unicode="&#xe90b;" glyph-name="start" d="M512.004 908.46c12.994 0 24.861-7.379 30.61-19.032l130.642-264.822 292.169-42.474c12.86-1.869 23.541-10.878 27.555-23.237 4.014-12.357 0.66-25.924-8.647-34.992l-211.397-205.926 49.872-290.873c2.196-12.805-3.068-25.748-13.581-33.384s-24.448-8.642-35.948-2.595l-261.275 137.395-261.275-137.395c-11.5-6.047-25.435-5.041-35.948 2.595s-15.777 20.579-13.583 33.384l49.874 290.873-211.398 205.926c-9.308 9.068-12.66 22.634-8.647 34.992s14.695 21.369 27.554 23.237l292.17 42.474 130.64 264.822c5.749 11.654 17.616 19.032 30.612 19.032zM512.004 797.174l-107.97-218.866c-4.972-10.075-14.583-17.061-25.701-18.677l-241.467-35.103 174.698-170.178c8.049-7.841 11.725-19.141 9.825-30.219l-41.218-240.393 215.945 113.558c9.946 5.23 21.828 5.23 31.773 0l215.945-113.558-41.218 240.393c-1.9 11.077 1.776 22.378 9.825 30.219l174.698 170.178-241.467 35.103c-11.118 1.616-20.731 8.602-25.701 18.677l-107.97 218.866z" />
<glyph unicode="&#xe90c;" glyph-name="desktop" horiz-adv-x="1006" d="M920.527 765.78c0 18.852-15.013 34.134-33.535 34.134h-767.939c-18.521 0-33.535-15.282-33.535-34.134v-461.483c0-18.851 15.014-34.133 33.535-34.133h767.939c18.522 0 33.535 15.283 33.535 34.133v461.483zM886.992 868.18c55.562 0 100.604-45.846 100.604-102.4v-461.483c0-56.554-45.042-102.4-100.604-102.4h-767.939c-55.562 0-100.604 45.846-100.604 102.4v461.483c0 56.554 45.042 102.4 100.604 102.4h767.939zM763.238 105.47c0 5.057-4.080 9.387-9.388 9.387h-501.677c-5.309 0-9.388-4.33-9.388-9.387 0-5.059 4.080-9.387 9.388-9.387h501.677c5.309 0 9.388 4.328 9.388 9.387zM830.308 105.47c0-43.013-34.356-77.653-76.459-77.653h-501.677c-42.103 0-76.458 34.64-76.458 77.653 0 43.012 34.356 77.653 76.458 77.653h501.677c42.103 0 76.459-34.642 76.459-77.653zM843.309 578.292c13.096-13.33 13.096-34.942 0-48.272l-181.422-184.661c-13.095-13.33-34.327-13.33-47.424 0s-13.096 34.942 0 48.272l181.42 184.661c13.096 13.33 34.329 13.33 47.426 0zM595.805 736.669c13.095-13.33 13.095-34.942 0-48.272l-337.022-343.040c-13.096-13.33-34.329-13.33-47.426 0s-13.096 34.942 0 48.272l337.022 343.040c13.096 13.33 34.329 13.33 47.426 0z" />
<glyph unicode="&#xe90d;" glyph-name="exchange" horiz-adv-x="988" d="M672.321 909.726c12.861 13.33 33.715 13.33 46.578 0l194.65-201.727c6.18-6.406 9.651-15.092 9.647-24.15s-3.482-17.742-9.667-24.143l-199.919-206.848c-12.874-13.317-33.727-13.299-46.578 0.041s-12.836 34.953 0.038 48.272l176.591 182.712-171.34 177.571c-12.863 13.33-12.863 34.942 0 48.272zM178.193 683.863c0 18.851 14.746 34.133 32.936 34.133h679.133c18.189 0 32.937-15.283 32.937-34.133 0-18.852-14.747-34.133-32.937-34.133h-679.133c-18.189 0-32.936 15.281-32.936 34.133zM321.049 442.763c12.852-13.341 12.834-34.953-0.038-48.272l-176.593-182.712 171.341-177.572c12.863-13.33 12.863-34.942 0-48.272s-33.717-13.33-46.578 0l-194.65 201.728c-6.18 6.404-9.65 15.092-9.647 24.15s3.481 17.742 9.666 24.141l199.92 206.848c12.872 13.319 33.726 13.301 46.578-0.040zM64.886 211.797c0 18.851 14.746 34.133 32.936 34.133h679.134c18.189 0 32.935-15.283 32.935-34.133 0-18.852-14.746-34.133-32.935-34.133h-679.134c-18.19 0-32.936 15.281-32.936 34.133z" />
<glyph unicode="&#xe90e;" glyph-name="calendar" horiz-adv-x="1006" d="M293.425 873.158c22.33 0 40.435-18.427 40.435-41.158v-1.509h128.719v1.509c0 22.731 18.103 41.158 40.435 41.158s40.435-18.427 40.435-41.158v-1.509h128.72v1.509c0 22.731 18.103 41.158 40.435 41.158s40.435-18.427 40.435-41.158v-1.509h85.319c21.842 0 42.789-8.832 58.233-24.552s24.12-37.041 24.12-59.273v-640c0-22.232-8.675-43.552-24.12-59.272-15.444-15.721-36.392-24.553-58.233-24.553h-670.69c-21.841 0-42.788 8.832-58.233 24.553-15.444 15.719-24.121 37.040-24.121 59.272v640c0 22.232 8.677 43.553 24.121 59.273s36.391 24.552 58.233 24.552h85.32v1.509c0 22.731 18.103 41.158 40.435 41.158zM252.989 748.176h-85.32c-0.393 0-0.77-0.158-1.048-0.442-0.278-0.282-0.434-0.666-0.434-1.067v-129.509h673.655v129.509c0 0.401-0.156 0.785-0.433 1.067-0.278 0.284-0.656 0.442-1.049 0.442h-85.319v-1.509c0-22.731-18.103-41.158-40.435-41.158s-40.435 18.427-40.435 41.158v1.509h-128.72v-1.509c0-22.731-18.103-41.158-40.435-41.158s-40.435 18.427-40.435 41.158v1.509h-128.719v-1.509c0-22.731-18.105-41.158-40.435-41.158-22.332 0-40.435 18.427-40.435 41.158v1.509zM839.842 534.842h-673.655v-428.176c0-0.401 0.156-0.783 0.434-1.067 0.278-0.282 0.655-0.442 1.048-0.442h670.69c0.393 0 0.771 0.16 1.049 0.442 0.277 0.284 0.433 0.666 0.433 1.067v428.176z" />
<glyph unicode="&#xe90f;" glyph-name="underline" horiz-adv-x="2315" d="M36.879 310.851c-0.579 0.134-0.889-0.672-0.35-0.877 495.782-190.322 1553.716-282.918 2160.396 650.026-221.727-278.12-1135.514-864.447-2160.102-649.162l0.056 0.013z" />
<glyph unicode="&#xe910;" glyph-name="facebook" horiz-adv-x="1052" d="M1041.719 423.959c0 284.291-230.418 514.708-514.665 514.708-284.248 0-514.665-230.417-514.665-514.708 0-256.839 188.211-469.757 434.242-508.361v359.61h-130.65v148.793h130.65v113.364c0 129.021 76.864 200.265 194.389 200.265 56.317 0 115.209-10.037 115.209-10.037v-126.66h-64.853c-63.91 0-83.854-39.676-83.854-80.381v-96.593h142.746l-22.82-148.794h-119.926v-359.609c246.030 38.603 434.241 251.521 434.241 508.403h-0.043z" />
<glyph unicode="&#xe920;" glyph-name="directory" d="M771.755-64h-584.363c-55.979 0-101.717 41.301-101.717 92.16l-2.389 839.339c0 51.2 45.739 92.501 101.717 92.501h178.176c39.595 0 73.728-20.48 90.453-50.517h318.123c55.979 0 101.717-41.301 101.717-92.16v-788.821c0-50.859-45.739-92.16-101.717-92.16v0zM185.003 877.397c-11.947 0-19.115-5.803-19.115-20.48l2.389-828.757c0-3.072 7.168-9.899 19.115-9.899h584.363c11.947 0 19.115 6.827 19.115 9.557v789.163c0 3.072-7.168 9.899-19.115 9.899h-348.501c-22.869 0-41.301 15.701-41.301 38.571s-6.827 11.947-18.773 11.947c0 0-178.176 0-178.176 0zM730.112 693.077h-103.083c-18.773 0-34.475 15.36-34.475 34.475v0c0 18.432 15.36 33.792 34.475 33.792h103.083c18.773 0 34.475-15.36 34.475-34.475v0c0-18.432-15.36-33.792-34.475-33.792v0zM529.749 693.077h-103.083c-18.773 0-34.475 15.36-34.475 34.475v0c0 18.432 15.36 33.792 34.475 33.792h103.083c18.773 0 34.475-15.36 34.475-34.475v0c0-18.432-15.36-33.792-34.475-33.792zM329.728 693.077h-103.083c-18.773 0-34.475 15.36-34.475 34.475v0c0 18.432 15.36 33.792 34.475 33.792h103.083c18.773 0 34.475-15.36 34.475-34.475v0c0-18.432-15.36-33.792-34.475-33.792z" />
<glyph unicode="&#xe921;" glyph-name="magic-stick" d="M804.523-64c-4.779 0-9.557 0.341-14.677 1.365-19.115 3.755-35.84 15.019-46.763 31.403l-584.704 876.544c-22.528 33.792-13.312 79.531 20.48 102.059s79.531 13.312 102.059-20.48l585.045-876.544c10.923-16.384 14.677-35.84 10.923-55.296s-15.019-35.84-31.403-46.763c-12.288-8.192-26.283-12.288-40.619-12.288zM219.477 906.752c-4.096 0-7.851-1.024-11.264-3.413-4.437-3.072-7.509-7.509-8.533-12.971s0-10.923 3.072-15.36l585.045-876.544c3.072-4.437 7.509-7.509 12.971-8.533s10.923 0 15.36 3.072c4.437 3.072 7.509 7.509 8.533 12.971s0 10.923-3.072 15.36l-585.045 876.203c-3.072 4.437-7.509 7.509-12.971 8.533-1.365 0-2.731 0.341-4.096 0.341zM255.043 744.363l102.31 64.928 47.736-75.219-102.31-64.928-47.736 75.219z" />
<glyph unicode="&#xe922;" glyph-name="invoice" horiz-adv-x="676" d="M563.43,674.21H112.57c-16.18,0-29.34-13.16-29.34-29.33V146.17c0-1.87.74-3.67,2.07-5L222.61,3.86c1.33-1.33,3.12-2.07,5-2.07h335.82c16.17,0,29.33,13.16,29.33,29.34v613.75c0,16.17-13.16,29.33-29.33,29.33ZM97.37,149.09v495.78c0,8.38,6.82,15.2,15.2,15.2h450.86c8.38,0,15.2-6.82,15.2-15.2V31.12c0-8.38-6.82-15.2-15.2-15.2H230.54L97.37,149.09Z" />
<!-- Instagram glyph -->
<glyph unicode="&#xe919;" glyph-name="instagram" horiz-adv-x="1052" d="M768 36h-484c-80.3 0-145 64.7-145 145v484c0 80.3 64.7 145 145 145h484c80.3 0 145-64.7 145-145v-484c0-80.3-64.7-145-145-145zM528 708c-99.5 0-180-80.5-180-180s80.5-180 180-180 180 80.5 180 180-80.5 180-180 180zM768 306.2c-29.1 0-52.8-23.7-52.8-52.8s23.7-52.8 52.8-52.8 52.8 23.7 52.8 52.8-23.7 52.8-52.8 52.8z" />
<glyph unicode="&#xe911;" glyph-name="chevron" d="M475.802 309.76l36.198-36.198 289.638 289.638-72.397 72.397-217.242-217.19-217.242 217.19-72.397-72.397z" />
<glyph unicode="&#xe912;" glyph-name="minus" d="M981.333 426.667c0 129.579-52.565 246.997-137.472 331.861s-202.283 137.472-331.861 137.472-246.997-52.565-331.861-137.472-137.472-202.283-137.472-331.861 52.565-246.997 137.472-331.861 202.283-137.472 331.861-137.472 246.997 52.565 331.861 137.472 137.472 202.283 137.472 331.861zM896 426.667c0-106.069-42.923-201.984-112.469-271.531s-165.461-112.469-271.531-112.469-201.984 42.923-271.531 112.469-112.469 165.461-112.469 271.531 42.923 201.984 112.469 271.531 165.461 112.469 271.531 112.469 201.984-42.923 271.531-112.469 112.469-165.461 112.469-271.531zM341.333 384h341.333c23.552 0 42.667 19.115 42.667 42.667s-19.115 42.667-42.667 42.667h-341.333c-23.552 0-42.667-19.115-42.667-42.667s19.115-42.667 42.667-42.667z" />
<glyph unicode="&#xe913;" glyph-name="play" horiz-adv-x="632" d="M600.027 475.543c16.722-14.482 16.722-40.42 0-54.899l-531.791-460.545c-23.517-20.367-60.084-3.66-60.084 27.45v921.090c0 31.11 36.567 47.816 60.084 27.449l531.791-460.545z" />
<glyph unicode="&#xe917;" glyph-name="arrow-styled" horiz-adv-x="766" d="M696.805 532.828c-84.828 163.598-233.278 275.692-424.142 312.047l-9.089 93.917c0 9.089-6.059 15.148-15.148 18.178-6.059 6.059-18.178 3.030-24.237-3.030l-218.13-230.249c-3.030-3.030-6.059-9.089-6.059-15.148s3.030-12.118 6.059-15.148l260.544-236.308c6.059-6.059 18.178-9.089 24.237-3.030 9.089 3.030 12.118 12.118 12.118 21.207l-12.118 115.124c136.331-12.118 242.367-69.68 312.047-166.627 84.828-118.154 103.006-284.781 51.503-457.467-3.030-12.118 3.030-24.237 15.148-27.266 3.030 0 6.059 0 9.089 0 9.089 0 15.148 6.059 21.207 12.118 90.888 190.864 90.888 402.935-3.030 581.68z" />
<glyph unicode="&#xe918;" glyph-name="arrow" horiz-adv-x="1490" d="M995.556-64c-8.533 0-14.222 2.844-19.911 8.533-11.378 11.378-11.378 28.444 0 39.822l435.2 435.2h-1382.4c-17.067 0-28.444 11.378-28.444 28.444s11.378 28.444 28.444 28.444h1382.4l-435.2 435.2c-11.378 11.378-11.378 28.444 0 39.822s28.444 11.378 39.822 0l455.111-455.111c5.689-5.689 11.378-14.222 14.222-22.756s5.689-17.067 5.689-25.6c0-8.533-2.844-17.067-5.689-25.6s-8.533-17.067-14.222-22.756l-455.111-455.111c-5.689-5.689-11.378-8.533-19.911-8.533z" />
</font>
</defs>
</svg>
